Les HaloGameurs Index du Forum
S’enregistrerRechercherFAQMembresGroupesConnexion
Download Highly Compressed Hindi Dubbed Movies

 
Répondre au sujet    Les HaloGameurs Index du Forum » Partie externe » Ici venez parler de tous et de rien Sujet précédent
Sujet suivant
Download Highly Compressed Hindi Dubbed Movies
Auteur Message
hedeloys


Hors ligne

Inscrit le: 07 Avr 2016
Messages: 68
Localisation: Napoli

Message Download Highly Compressed Hindi Dubbed Movies Répondre en citant



Download Highly Compressed Hindi Dubbed Movies > urlin.us/1m5vi









Download Highly Compressed Hindi Dubbed Movies

d80797dd21
RELEASE.DATE . Prevent crimes in progress, take down gangs of violent newcriminals and explore deadly new locations, from the impoverished streetsto the penthouses of Gotham's wealthy. Play the game. There is the search result of Super Highly Compressed Hollywood Hindi Dubbed Movies In Mkv Format In10mb Mediafire. Play the game.6. Among these outlaws is a brash young captain named Edward Kenway. * EXPLORE AN OPEN WORLD FILLED WITH OPPORTUNITIES Discover the largest and most diverse Assassin's Creed world ever created.

Copy everything from the SKIDROW folder into the game installation 5. NOTES - This is our V2 with higher video and audio bitrate, we took the source and completly reworked it with alot of filters and tweaking, i believe it is better than V1 and took many hours to encode, cant say we dont give u choice :wink: Sample Included.GeneralComplete name : Thor The Dark World V2 2013 CAM AAC x264-SSDD.mp4Format : MPEG-4Format profile : Base MediaCodec ID : isomOriginal File size : 1.37 GiB Highly Compressed File Size:1.1MBDuration : 1h 43mnOverall bit rate mode : VariableOverall bit rate : 1 890 KbpsVideoID : 1Format : AVCFormat/Info : Advanced Video CodecFormat profile : HighL4.1Format settings, CABAC : YesFormat settings, ReFrames : 4 framesCodec ID : avc1Codec ID/Info : Advanced Video CodingDuration : 1h 43mnBit rate : 1 757 KbpsMaximum bit rate : 3 758 KbpsWidth : 720 pixelsHeight : 304 pixelsDisplay aspect ratio : 2.35:1Frame rate mode : ConstantFrame rate : 50.000 fpsColor space : YUVChroma subsampling : 4:2:0Bit depth : 8 bitsScan type : ProgressiveBits/(Pixel*Frame) : 0.161Stream size : 1.27 GiB (93%)Writing library : x264 core 140 r2377 1ca7bb9AudioID : 2Format : AACFormat/Info : Advanced Audio CodecFormat profile : LCCodec ID : 40Duration : 1h 43mnBit rate mode : VariableBit rate : 128 KbpsMaximum bit rate : 133 KbpsChannel count : 2 channelsChannel positions : Front: L RSampling rate : 48.0 KHzCompression mode : LossyStream size : 94.8 MiB (7%): Screenshots :: :: Proof of Highly Compressed Movie:: Compressed Size :- 1.01 Mib Size After Decompressing : 1.02GiB Extra tags : thor the dark world watch online ,thor the dark world watch online free,thor the dark world watch online free,thor the dark world watch online free putlocker,thor the dark world download,thor the dark world full movie online,thor the dark world full movie online free,thor the dark world movie online 0 0 11/25/13--03:47: Assassins Creed IV Black Flag-RELOADED Cracked Highly Compressed Only 40.84 Mib Contact us about this article Assassins Creed IV Black Flag-RELOADED Cracked Highly Compressed Only 40.84 MibAssassins Creed IV Black Flag-RELOADED Cracked hautement comprim Seulement 40,84 Mib **Info** Assassin's Creed IV Black Flag (c) UbisoftRelease Date: October 29, 2013M for Mature: Blood, Sexual Themes, Strong Language, Use of Alcohol, ViolenceGenre: ActionPublisher: UbisoftDeveloper: Ubisoft Montreal The year is 1715. Copy over the cracked content from the /Crack directory on the imageto your game install directory.5. 01/13/14--04:58: Raze 2013 HDRip Fu. Garcinia cambogia 9. * THE BEST ASSASSIN'S CREED MULTIPLAYER EXPERIENCE TO DATE Put your assassination skills to test and embark on an online journey throughout the Caribbean. You can only upload files of type PNG, JPG, or JPEG. GAME.TYPE .: Action, FPS Battlefield 4 is the genre-defining action blockbuster made from at blur the line between game and glory. Betrayed by the Agency and hunted by the police, Agent 47 finds himself pursuing redemption in a corrupt and twisted world.





Dim 17 Avr - 10:51 (2016)
Publicité






Message Publicité
PublicitéSupprimer les publicités ?

Dim 17 Avr - 10:51 (2016)
Montrer les messages depuis:    
Répondre au sujet    Les HaloGameurs Index du Forum » Partie externe » Ici venez parler de tous et de rien Toutes les heures sont au format GMT + 1 Heure
Page 1 sur 1

 
Sauter vers: 

Index | Panneau d’administration | créer un forum | Forum gratuit d’entraide | Annuaire des forums gratuits | Signaler une violation | Conditions générales d'utilisation
Powered by phpBB © 2001, 2005 phpBB Group
Design by Freestyle XL / Music Lyrics.Traduction par : phpBB-fr.com